#TITLE:Ring Ring Ring;
#SUBTITLE:;
#ARTIST:S.H.E;
#TITLETRANSLIT:;
#SUBTITLETRANSLIT:;
#ARTISTTRANSLIT:S.H.E;
#CREDIT:;
#BANNER:Ring Ring Ring-bn.png;
#BACKGROUND:Ring Ring Ring-bg.png;
#LYRICSPATH:;
#CDTITLE:pm4cd.png;
#MUSIC:Ring Ring Ring.mp3;
#OFFSET:0.020;
#SAMPLESTART:153.960;
#SAMPLELENGTH:20.000;
#SELECTABLE:YES;
#BPMS:0.000=102.000;
#STOPS:;
#BGCHANGES:0.000=Ring Ring Ring .avi=1.000=0=0=1,
383.750=Ring Ring Ring-bg.png=1.000=0=0=1,
99999=-nosongbg-=1.000=0=0=0 // don't automatically add -songbackground-
;
// cache tags:
#FIRSTBEAT:9.750;
#LASTBEAT:383.750;
#SONGFILENAME:Songs/Music V.I.P ^_^/Ring Ring Ring/Ring Ring Ring.sm;
#HASMUSIC:1;
#HASBANNER:1;
#MUSICLENGTH:228.811;
// end cache tags

//---------------dance-single - ----------------
#NOTES:
     dance-single:
     :
     Hard:
     10:
     0.840,0.964,1.000,0.223,1.000,886.000,356.000,51.000,0.000,163.000:
0000
0000
0000
0000
,
0000
0000
0000
0000
,
0000
0000
0000
0000
0000
0000
0000
1000
0100
0010
0001
1000
0000
0000
0000
0001
,
0010
0100
1000
0001
0000
0000
0000
1000
0100
0010
0001
0010
0100
1000
0100
0010
,
0001
0010
0100
1000
0000
0000
0000
1000
0100
0010
0001
1000
0000
0000
0000
0001
,
0010
0100
1000
0001
0000
0000
0000
1000
0100
0010
0001
0010
0100
1000
0100
0010
,
0001
0010
0100
1000
0000
0000
0000
1111
1001
1001
1001
0110
0000
0000
0000
0110
,
0110
0110
0110
1001
0000
0000
0000
1000
0001
0010
1000
0100
0001
0010
1000
0001
,
1000
0001
1000
0110
0000
0000
0000
1111
1100
1100
1100
0101
0000
0000
0000
0011
,
0011
0011
0011
1010
0000
0000
0000
1000
0001
0010
1000
0100
0001
0010
1000
0001
,
0100
0001
1000
0110
0000
0000
0000
1010
0000
0100
0000
0110
0000
0001
0000
0110
,
0000
0100
0000
1100
0000
0010
0000
0101
0000
0010
0000
1100
0000
0100
0000
0011
,
0000
1000
0000
0110
0000
0010
0000
2000
0000
0000
0000
0000
0000
3002
0000
0000
,
0000
0000
0000
0003
0000
0100
0000
1100
0010
0001
0010
0100
0000
0000
0000
1100
,
0000
1010
0000
0101
0000
1100
0000
0110
0000
0010
0000
1010
0000
0100
0000
0011
,
0000
1000
0000
0101
0000
0100
0000
1100
0000
0010
0000
0101
0000
0010
0000
1100
,
0000
0010
0000
0101
0000
0010
0000
1100
0000
0010
0000
0101
0000
0010
0000
0110
,
0000
1000
0000
0001
0000
0100
0000
0010
0000
1000
0000
0001
0010
0100
1000
0001
,
0010
0000
0000
1011
0000
0000
0000
1100
0011
1100
0011
1100
0000
0110
1010
0101
,
1010
0101
0000
1000
0010
1000
0100
1001
0000
0100
0010
0001
0010
0100
1000
0011
,
0000
0011
0000
0011
0000
0000
0000
1000
0010
1000
0010
0101
0000
0100
0010
0001
,
0010
0100
1000
0100
0010
0001
1000
0100
1000
0001
0100
0010
1000
0001
0000
1101
,
0000
1011
0000
1101
0000
0000
0000
2010
0000
0001
0000
0010
0000
0100
0000
0001
,
0000
0010
0000
0100
0000
0001
0000
3102
0000
0010
0000
0100
0000
1000
0000
0010
,
0000
0100
0000
1000
0000
0100
0000
2013
0000
0001
0000
0010
0000
0100
0000
0001
,
0000
0010
0000
0100
0000
0001
0000
3110
0011
1100
0110
1001
0000
0100
0010
0100
,
1000
0100
0010
0101
0000
0000
0000
0210
0000
1000
0000
0001
0000
0010
0000
1000
,
0000
0010
0000
1000
0000
0001
0000
1320
0000
0100
0000
0001
0000
0100
0000
1000
,
0000
0100
0000
0001
0000
0100
0000
2031
0000
0100
0000
0001
0000
0010
0000
0100
,
0000
0010
0000
0001
0000
0010
0000
3100
0010
0001
0010
1100
0000
0010
0100
0001
,
0000
1100
0000
0101
0000
0000
0000
1000
0000
1000
0000
1000
0000
0011
0000
1100
,
0000
0000
0011
0000
0000
0000
1001
0000
0000
0000
0000
0000
0000
0000
1000
0001
0010
0100
0001
0010
0100
1000
0001
0010
0100
0001
0010
0100
1000
0000
1001
0000
,
0000
0000
0000
0000
0000
0000
1111
0000
0000
0000
0000
0000
0000
0000
1000
0010
0100
1000
0001
0010
0100
1000
0001
0010
0100
0001
0010
0100
1000
0000
1001
0000
,
0000
0000
0000
0000
0000
0000
1101
0000
0000
0000
0000
0000
0000
0000
0100
0001
0010
0100
1000
0100
0010
0001
0010
0100
1000
0001
0010
0100
1000
0000
1001
0000
,
0000
0000
0000
1001
0000
0000
0000
1100
1100
0000
0000
1100
1100
0011
0000
1100
,
0000
0011
0000
1101
0000
0000
0000
1000
0100
0010
0001
1000
0000
0000
0000
0001
,
0010
0100
1000
0001
0000
0000
0000
1000
0100
0010
0001
0010
0100
1000
0100
0010
,
0001
0010
0100
1000
0000
0000
0000
1000
0100
0010
0001
1000
0000
0000
0000
0001
,
0010
0100
1000
0001
0000
0000
0000
1000
0100
0010
0001
0010
0100
1000
0100
0010
,
0001
0010
0100
1000
0000
0000
0000
0001
0000
0010
0000
0100
0000
1000
0000
0100
,
0000
0010
0000
0101
0000
0010
0000
2220
0000
0031
0310
3101
0000
1000
0000
0100
,
0000
0010
0000
1001
0000
0010
0000
0222
0000
1300
0130
1013
0000
0100
0000
0010
,
0000
0001
0000
1010
0000
0100
0000
2022
0000
3100
1030
0113
0000
0001
0000
0010
,
0000
0100
0000
1001
0000
0100
0000
2202
0000
3010
1003
0311
0000
1000
0000
0010
,
0000
0100
0000
0011
0000
1000
0000
0222
0000
1003
0301
1130
0000
0001
0000
0010
,
0000
0100
0000
1010
0000
0100
0000
2220
0000
0031
3010
1301
0000
0010
0000
0100
,
0000
0001
0000
1100
0000
0010
0000
2202
0010
0310
3100
1013
0000
0010
0001
0010
,
0100
1000
0000
2222
3000
0300
0030
1103
0011
1100
0011
1100
0000
0110
1010
0101
,
1010
0101
0000
1000
0010
1000
0100
1001
0000
0100
0010
0001
0010
0100
1000
0011
,
0000
0011
0000
0011
0000
0000
0000
1000
0010
1000
0010
0101
0000
0100
0010
0001
,
0010
0100
1000
0100
0010
0001
1000
0100
1000
0001
0100
0010
1000
0001
0000
1101
,
0000
1011
0000
1101
0000
0000
0000
1012
0000
0100
0000
1000
0000
0010
0000
1000
,
0000
0010
0000
1000
0000
0100
0000
0213
0000
0001
0000
1000
0000
0010
0000
0001
,
0000
1000
0000
0001
0000
0010
0000
2310
0000
0001
0000
0100
0000
0001
0000
0100
,
0000
0010
0000
0001
0000
0010
0000
3110
0011
0110
1100
0101
0000
0110
1001
0101
,
1010
0101
0000
1011
0000
0000
0000
0210
0000
1000
0000
0001
0000
0010
0000
1000
,
0000
0010
0000
1000
0000
0001
0000
1320
0000
0100
0000
0001
0000
0100
0000
1000
,
0000
0100
0000
0001
0000
0100
0000
2031
0000
0100
0000
0001
0000
0010
0000
0100
,
0000
0010
0000
0001
0000
0010
0000
3100
0010
0001
0010
1100
0000
0010
0100
0001
,
0000
1100
0000
0101
0000
0000
0000
1001
0000
1001
0000
1001
0000
0010
0000
0100
,
0000
0010
0000
0110
0000
0000
0000
1111
0000
0011
0000
0011
0000
0100
1000
0001
,
0010
0100
0000
0011
0000
0110
0000
0001
1000
0001
0010
0100
0001
1000
0010
0100
,
0001
1000
0010
0100
0000
0000
0000
1000
0001
0100
0010
0100
1000
0001
0010
0100
,
0001
0010
1000
0011
1100
0000
0000
1100
0000
1100
0000
1100
0000
0001
0010
0001
,
1000
0100
0010
1001
0000
0000
0000
1000
0000
0100
0000
0010
0000
0001
0000
0110
,
0000
0000
0000
1111
0000
0000
0000
0112
0000
1100
0000
1010
0000
0110
0000
1010
,
0000
1010
0000
0110
0000
1100
0000
1213
0000
1010
0000
0011
0000
1001
0000
1010
,
0000
0011
0000
1001
0000
1010
0000
1321
0000
1100
0000
0101
0000
1001
0000
1100
,
0000
0101
0000
1001
0000
1100
0000
1130
0110
0011
0110
1100
0000
1001
0101
0011
,
0110
1001
0000
1011
0000
0000
0000
2111
0000
0110
0000
0011
0000
0110
0000
0101
,
0000
0011
0000
0101
0000
0110
0000
3211
0000
1010
0000
0011
0000
1010
0000
0011
,
0000
1010
0000
1001
0000
0011
0000
1312
0000
1010
0000
1100
0000
0110
0000
1100
,
0000
1010
0000
1100
0000
0110
0000
0113
1001
1010
1100
1010
0000
0101
0110
1010
,
1100
0011
0000
1101
0000
0000
0000
1121
0000
0101
0000
1001
0000
1100
0000
1001
,
0000
1100
0000
0101
0000
1100
0000
1231
0000
1001
0000
0011
0000
1010
0000
1001
,
0000
0011
0000
1001
0000
1010
0000
2311
0000
0110
0000
0101
0000
0011
0000
0101
,
0000
0011
0000
0110
0000
0011
0000
3101
1010
0101
1100
0110
0000
1100
0011
1100
,
0110
0011
0000
1110
0000
0000
0000
1112
0000
1010
0000
0110
0000
1100
0000
1010
,
0000
0110
0000
1100
0000
0110
0000
1213
0000
0011
0000
1001
0000
1010
0000
1001
,
0000
0011
0000
1010
0000
0011
0000
1321
0000
0101
0000
1100
0000
1001
0000
0101
,
0000
1100
0000
1001
0000
0101
0000
1130
0110
0011
0101
1001
0000
0011
0110
1100
,
1010
1001
0000
1011
0000
0000
0000
0011
0000
0011
0000
0011
0000
1000
0000
0001
,
0000
1000
0000
1001
0000
0000
0000
1000
0100
0001
0000
1100
0000
0011
0000
0110
,
0000
0000
0000
0000
0000
0000
0000
1000
0100
0001
0000
1100
0000
0011
0000
0110
,
0000
0000
0000
0000
0000
0000
0000
1000
0100
0001
0000
0110
0000
1100
0000
0011
,
0000
0000
0000
0000
0000
0000
0000
1000
0100
0001
0000
0110
0000
1001
0000
0110
,
0000
1001
0000
1001
0000
1001
0000
1111
1001
1001
1001
0110
0000
0000
0000
0110
,
0110
0110
0110
1001
0000
0000
0000
1000
0001
0010
1000
0100
0001
0010
1000
0001
,
1000
0001
1000
0110
0000
0000
0000
1111
1100
1100
1100
0101
0000
0000
0000
0011
,
0011
0011
0011
1010
0000
0000
0000
1000
0001
0010
1000
0100
0001
0010
1000
0001
,
0100
0001
1000
0110
0000
0000
0000
1000
0100
0010
0001
1000
0000
0000
0000
0001
,
0010
0100
1000
0001
0000
0000
0000
1000
0100
0010
0001
0010
0100
1000
0100
0010
,
0001
0010
0100
1000
0000
0000
0000
1000
0000
0000
0000
0000
0000
0000
0000
1000
,
0000
0000
0000
0000
0000
0000
0000
1000
0000
0000
0000
0000
0000
0000
0000
1000
,
0000
0000
0000
0000
0000
0000
0000
1000
0000
0000
0000
0000
0000
0000
0000
1000
,
0000
0000
0000
0000
0000
0000
0000
1000
0000
0000
0000
0000
0000
0000
0000
1000
;

//---------------dance-single - ----------------
#NOTES:
     dance-single:
     :
     Medium:
     1:
     0.000,0.000,0.000,0.000,0.000,0.000,0.000,0.000,0.000,0.000:
0000
0000
0000
0000
;

//---------------dance-single - ----------------
#NOTES:
     dance-single:
     :
     Easy:
     1:
     0.000,0.000,0.000,0.000,0.000,0.000,0.000,0.000,0.000,0.000:
0000
0000
0000
0000
;
